<?xml version="1.0" standalone="no"?>
<!DOCTYPE svg PUBLIC "-//W3C//DTD SVG 1.1//EN" "http://www.w3.org/Graphics/SVG/1.1/DTD/svg11.dtd" >
<svg>
<metadata>
Created by FontForge 20110222 at Sat Jan 14 12:53:56 2012
 By www-data
Web Symbols is a trademark of Just Be Nice studio.
</metadata>
<defs>
<font id="WebSymbols-Regular" horiz-adv-x="1000" >
  <font-face 
    font-family="Web Symbols"
    font-weight="400"
    font-stretch="normal"
    units-per-em="1000"
    panose-1="0 0 0 0 0 0 0 0 0 0"
    ascent="801"
    descent="-199"
    x-height="683"
    cap-height="800"
    bbox="0 -200 1550 869"
    underline-thickness="50"
    underline-position="-50"
    stemh="264"
    stemv="264"
    unicode-range="U+0020-00D7"
  />
    <missing-glyph />
    <glyph glyph-name="space" unicode=" " horiz-adv-x="250" 
 />
    <glyph glyph-name="exclam" unicode="!" 
 />
    <glyph glyph-name="numbersign" unicode="#" horiz-adv-x="965" 
d="M207 259c0 -23 -24 -26 -42 -26h-16v52h23c18 0 35 -5 35 -26zM190 355c0 -21 -17 -23 -34 -23h-7v46h8c16 0 33 -3 33 -23zM265 -112h62v241h-62v-148h-1l-115 148h-62v-241h62v147h1zM388 -112h63v241h-63v-241zM270 252c0 33 -14 57 -49 62v0c20 10 27 29 27 49
c0 46 -29 63 -72 63h-89v-241h96c44 0 87 17 87 67zM684 -107v75c-13 -16 -33 -26 -54 -26c-38 0 -65 27 -65 66c0 37 26 66 64 66c21 0 42 -9 55 -26v75c-18 7 -37 12 -57 12c-70 0 -127 -57 -127 -127c0 -72 57 -126 129 -126c19 0 37 5 55 11zM309 185h137v53h-74v42h70
v53h-70v40h74v53h-137v-241zM222 561v162h-136v-51h74v-112c0 -12 -1 -31 -18 -31c-10 0 -21 12 -27 19l-34 -36c14 -22 35 -36 62 -36c52 0 79 34 79 85zM740 -112h137v53h-75v41h71v53h-71v41h75v53h-137v-241zM484 588v135h-63v-126c0 -32 -3 -66 -42 -66
c-40 0 -43 34 -43 66v126h-63v-135c0 -73 28 -112 106 -112c77 0 105 39 105 112zM697 564c0 79 -104 58 -104 93c0 14 16 20 27 20c15 0 30 -6 42 -16l25 49c-23 13 -50 20 -76 20c-48 0 -83 -32 -83 -81c0 -85 103 -54 103 -95c0 -17 -15 -25 -30 -25c-21 0 -40 12 -56 25
l-26 -50c24 -18 54 -28 84 -28c56 0 94 30 94 88zM838 670h52v53h-166v-53h51v-187h63v187zM965 801v-1000h-965v1000h965z" />
    <glyph glyph-name="percent" unicode="%" 
d="M306 -32l161 -168h-467v467l168 -161l161 161c38 38 100 38 138 0s38 -100 0 -138zM1000 800v-467l-168 161l-161 -161c-38 -38 -100 -38 -138 0s-38 100 0 138l161 161l-161 168h467z" />
    <glyph glyph-name="ampersand" unicode="&#x26;" 
d="M644 382l116 -102v280h-280l102 -116l-13 -13l-213 -213l-116 102v-280h280l-102 116zM1000 300c0 -276 -224 -500 -500 -500s-500 224 -500 500s224 500 500 500s500 -224 500 -500z" />
    <glyph glyph-name="parenleft" unicode="(" 
d="M547 68l71 71l-161 161l161 161l-71 71l-233 -232zM1000 300c0 -276 -224 -500 -500 -500s-500 224 -500 500s224 500 500 500s500 -224 500 -500z" />
    <glyph glyph-name="parenright" unicode=")" 
d="M453 68l233 232l-233 232l-71 -71l161 -161l-161 -161zM1000 300c0 -276 -224 -500 -500 -500s-500 224 -500 500s224 500 500 500s500 -224 500 -500z" />
    <glyph glyph-name="asterisk" unicode="*" 
d="M740 220l180 180h-120c-41 124 -177 213 -305 213c-175 0 -317 -141 -317 -316s142 -316 317 -316c84 0 164 33 223 92l-62 71c-42 -41 -98 -64 -156 -64c-121 0 -220 99 -220 220s99 220 220 220c56 0 117 -23 156 -64c17 -19 15 -34 24 -56h-120zM1000 300
c0 -276 -224 -500 -500 -500s-500 224 -500 500s224 500 500 500s500 -224 500 -500z" />
    <glyph glyph-name="plus" unicode="+" 
d="M560 242h235v118h-235v235h-118v-235h-236v-118h236v-236h118v236zM1000 300c0 -276 -224 -500 -500 -500s-500 224 -500 500s224 500 500 500s500 -224 500 -500z" />
    <glyph glyph-name="comma" unicode="," 
d="M840 505c37 37 37 98 0 135s-98 37 -135 0s-37 -98 0 -135s98 -37 135 0zM1000 665v-270l-595 -595l-405 405l595 595h270z" />
    <glyph glyph-name="hyphen" unicode="-" 
d="M206 242h589v118h-589v-118zM1000 300c0 -276 -224 -500 -500 -500s-500 224 -500 500s224 500 500 500s500 -224 500 -500z" />
    <glyph glyph-name="period" unicode="." horiz-adv-x="1179" 
d="M1179 729c-322 -286 -715 -929 -715 -929s-143 179 -464 500l107 107l286 -250c536 536 714 643 714 643s36 0 72 -71z" />
    <glyph glyph-name="slash" unicode="/" 
d="M260 354l-54 -53c160 -160 232 -249 232 -249s196 320 356 463c-18 35 -36 35 -36 35s-89 -53 -356 -320zM500 801c276 0 500 -224 500 -500s-224 -500 -500 -500s-500 224 -500 500s224 500 500 500z" />
    <glyph glyph-name="zero" unicode="0" 
d="M188 -26l-83 83l187 187l83 -83zM812 -26l-187 187l83 83l187 -187zM292 494l-187 187l83 83l187 -187zM0 428h265v-118h-265v118zM735 310v118h265v-118h-265zM559 -131h-118v265h118v-265zM559 604h-118v265h118v-265z" />
    <glyph glyph-name="one" unicode="1" 
d="M188 -26l-83 83l187 187l83 -83zM812 764l83 -83l-187 -187l-83 83zM812 -26l-187 187l83 83l187 -187zM292 494l-187 187l83 83l187 -187zM0 428h265v-118h-265v118zM559 -131h-118v265h118v-265zM559 604h-118v265h118v-265z" />
    <glyph glyph-name="two" unicode="2" 
d="M188 -26l-83 83l187 187l83 -83zM812 764l83 -83l-187 -187l-83 83zM292 494l-187 187l83 83l187 -187zM0 428h265v-118h-265v118zM735 310v118h265v-118h-265zM559 -131h-118v265h118v-265zM559 604h-118v265h118v-265z" />
    <glyph glyph-name="three" unicode="3" 
d="M188 -26l-83 83l187 187l83 -83zM812 764l83 -83l-187 -187l-83 83zM812 -26l-187 187l83 83l187 -187zM292 494l-187 187l83 83l187 -187zM0 428h265v-118h-265v118zM735 310v118h265v-118h-265zM559 604h-118v265h118v-265z" />
    <glyph glyph-name="four" unicode="4" 
d="M812 764l83 -83l-187 -187l-83 83zM812 -26l-187 187l83 83l187 -187zM292 494l-187 187l83 83l187 -187zM0 428h265v-118h-265v118zM735 310v118h265v-118h-265zM559 -131h-118v265h118v-265zM559 604h-118v265h118v-265z" />
    <glyph glyph-name="five" unicode="5" 
d="M188 -26l-83 83l187 187l83 -83zM812 764l83 -83l-187 -187l-83 83zM812 -26l-187 187l83 83l187 -187zM292 494l-187 187l83 83l187 -187zM735 310v118h265v-118h-265zM559 -131h-118v265h118v-265zM559 604h-118v265h118v-265z" />
    <glyph glyph-name="six" unicode="6" 
d="M188 -26l-83 83l187 187l83 -83zM812 764l83 -83l-187 -187l-83 83zM812 -26l-187 187l83 83l187 -187zM0 428h265v-118h-265v118zM735 310v118h265v-118h-265zM559 -131h-118v265h118v-265zM559 604h-118v265h118v-265z" />
    <glyph glyph-name="seven" unicode="7" 
d="M188 -26l-83 83l187 187l83 -83zM812 764l83 -83l-187 -187l-83 83zM812 -26l-187 187l83 83l187 -187zM292 494l-187 187l83 83l187 -187zM0 428h265v-118h-265v118zM735 310v118h265v-118h-265zM559 -131h-118v265h118v-265z" />
    <glyph glyph-name="colon" unicode=":" 
d="M661 182l71 71l-232 233l-232 -233l71 -71l161 161zM1000 300c0 -276 -224 -500 -500 -500s-500 224 -500 500s224 500 500 500s500 -224 500 -500z" />
    <glyph glyph-name="semicolon" unicode=";" 
d="M500 114l232 233l-71 71l-161 -161l-161 161l-71 -71zM1000 300c0 -276 -224 -500 -500 -500s-500 224 -500 500s224 500 500 500s500 -224 500 -500z" />
    <glyph glyph-name="less" unicode="&#x3c;" horiz-adv-x="654" 
d="M308 300l346 -346l-154 -154l-500 500l500 500l154 -154z" />
    <glyph glyph-name="greater" unicode="&#x3e;" horiz-adv-x="654" 
d="M154 800l500 -500l-500 -500l-154 154l346 346l-346 346z" />
    <glyph glyph-name="question" unicode="?" horiz-adv-x="586" 
d="M379 507c0 48 -38 86 -86 86s-86 -38 -86 -86s38 -86 86 -86s86 38 86 86zM586 507c0 0 0 -162 -293 -707c-293 545 -293 707 -293 707c0 162 131 293 293 293s293 -131 293 -293z" />
    <glyph glyph-name="at" unicode="@" horiz-adv-x="1360" 
d="M157 -42h1048v558l-494 -412h-61l-493 412v-558zM174 639l507 -423l507 423h-1014zM105 796h1152c58 0 105 -47 105 -105v-785c0 -58 -47 -105 -105 -105h-1152c-58 0 -105 47 -105 105v785c0 58 47 105 105 105z" />
    <glyph glyph-name="A" unicode="A" horiz-adv-x="1113" 
d="M1113 507c0 -89 -37 -177 -100 -239l-448 -444l-62 61l448 444c47 46 74 112 74 178c0 119 -87 206 -206 206c-67 0 -132 -29 -180 -75l-493 -489c-35 -35 -59 -83 -59 -133c0 -76 56 -130 131 -130c50 0 99 24 134 59l377 372c23 24 53 62 53 97c0 30 -26 45 -54 45
c-32 0 -64 -17 -86 -40l-340 -336l-61 61l339 336c39 39 92 66 148 66c75 0 142 -53 142 -131c0 -61 -38 -117 -79 -159l-377 -372c-52 -52 -123 -84 -196 -84c-124 0 -218 91 -218 216c0 73 33 143 84 194l493 489c65 63 151 101 242 101c167 0 294 -126 294 -293z" />
    <glyph glyph-name="B" unicode="B" 
d="M250 -75c0 -69 -56 -125 -125 -125s-125 56 -125 125s56 125 125 125s125 -56 125 -125zM660 -200h-192c0 125 -49 243 -137 331c-89 89 -206 137 -331 137v192c364 0 660 -296 660 -660zM1000 -200h-193c0 446 -362 808 -807 808v192c551 0 1000 -449 1000 -1000z" />
    <glyph glyph-name="C" unicode="C" horiz-adv-x="1435" 
d="M1435 83c0 -148 -114 -271 -261 -282v-1h-870v1c-7 -1 -14 -1 -21 -1c-156 0 -283 127 -283 283c0 99 53 191 138 242c-5 20 -8 41 -8 62c0 156 127 283 283 283c68 0 134 -26 186 -70c57 121 180 200 314 200c192 0 348 -156 348 -348c0 -35 -5 -70 -16 -103
c113 -39 190 -147 190 -266z" />
    <glyph glyph-name="D" unicode="D" horiz-adv-x="1091" 
d="M91 -108h636v364h-636v-364zM818 256h182v363h-636v-182h454v-181zM1091 801v-636h-273v-364h-818v636h273v364h818z" />
    <glyph glyph-name="F" unicode="F" horiz-adv-x="1391" 
d="M1391 419v-10l-68 -523c-6 -47 -50 -86 -98 -86h-1058c-48 0 -93 39 -99 86l-67 523c-1 3 -1 7 -1 10c0 44 35 76 78 76h1235c43 0 78 -32 78 -76zM1313 583h-1235c27 140 96 45 121 116l24 72c66 25 138 29 208 29c48 0 120 -12 164 -29l25 -72c33 -31 30 -29 76 -29
h485c25 0 90 -5 110 -22c10 -9 20 -54 22 -65z" />
    <glyph glyph-name="H" unicode="H" horiz-adv-x="1500" 
d="M308 300l346 -346l-154 -154l-500 500l500 500l154 -154zM1000 800l500 -500l-500 -500l-154 154l346 346l-346 346z" />
    <glyph glyph-name="I" unicode="I" horiz-adv-x="1360" 
d="M1163 7c2 -2 1 -7 -3 -7h-955h-1c-3 0 -4 2 -4 4v2c34 68 219 456 279 579c1 3 5 3 7 1l311 -386l152 122c5 2 7 0 7 0l1 -2c81 -103 123 -210 206 -313zM1120 480c0 -44 -36 -80 -80 -80s-80 36 -80 80s36 80 80 80s80 -36 80 -80zM120 -80h1120v760h-1120v-760z
M1360 800v-1000h-1360v1000h1360z" />
    <glyph glyph-name="J" unicode="J" horiz-adv-x="1360" 
d="M760 120l117 -120h-636l-1 360h-240l300 320l300 -320h-240v-240h400zM1120 320h240l-300 -320l-300 320h240v240h-400l-117 120h636z" />
    <glyph glyph-name="K" unicode="K" 
d="M613 445l-115 -115c-17 11 -37 17 -56 17c-28 0 -55 -11 -75 -31l-175 -176c-20 -19 -31 -46 -31 -74c0 -58 47 -105 105 -105c30 0 71 15 82 46h238l-132 -129c-50 -49 -117 -78 -188 -78c-147 0 -266 119 -266 266c0 70 28 139 78 188l175 176c50 50 118 78 189 78
c62 0 123 -22 171 -63zM1000 534c0 -70 -28 -139 -78 -188l-175 -176c-50 -50 -118 -78 -189 -78c-62 0 -123 22 -171 63l115 115c17 -11 37 -17 56 -17c28 0 55 11 75 31l175 176c20 19 31 46 31 74c0 58 -47 105 -105 105c-30 0 -71 -15 -82 -46h-238l132 129
c50 49 117 78 188 78c147 0 266 -119 266 -266z" />
    <glyph glyph-name="L" unicode="L" 
d="M681 391c0 151 -122 273 -272 273c-151 0 -273 -122 -273 -273c0 -150 122 -272 273 -272c150 0 272 122 272 272zM746 160l254 -255l-105 -105l-254 254c-66 -45 -146 -72 -232 -72c-226 0 -409 183 -409 409s183 409 409 409s409 -183 409 -409
c0 -86 -27 -166 -72 -231z" />
    <glyph glyph-name="M" unicode="M" horiz-adv-x="1360" 
d="M80 -120h120v80h-120v-80zM280 -120h120v80h-120v-80zM520 -120h120v80h-120v-80zM80 40h320v520h-320v-520zM720 -120h120v80h-120v-80zM80 640h120v80h-120v-80zM960 -120h120v80h-120v-80zM520 40h320v520h-320v-520zM280 640h120v80h-120v-80zM1160 -120h120v80h-120
v-80zM520 640h120v80h-120v-80zM960 40h320v520h-320v-520zM720 640h120v80h-120v-80zM960 640h120v80h-120v-80zM1160 640h120v80h-120v-80zM1360 800v-1000h-1360v1000h1360z" />
    <glyph glyph-name="N" unicode="N" horiz-adv-x="1063" 
d="M775 800c168 0 288 -117 288 -287v-60c0 -262 -341 -521 -532 -653c-191 132 -531 391 -531 653v60c0 170 120 287 287 287c114 0 174 -46 244 -129c71 83 130 129 244 129z" />
    <glyph glyph-name="O" unicode="O" horiz-adv-x="1063" 
d="M946 458c1 16 0 33 0 50c0 73 -56 166 -134 175c-12 2 -25 2 -37 2c-77 0 -107 -32 -155 -88l-89 -105l-89 105c-48 56 -77 88 -155 88c-12 0 -24 0 -37 -2c-80 -9 -130 -101 -134 -175c-1 -17 0 -34 0 -50c0 -23 9 -54 17 -75c59 -173 256 -337 398 -441
c143 104 339 268 399 441c7 22 16 51 16 75zM1063 513v-60c0 -262 -341 -521 -532 -653c-191 132 -531 391 -531 653v60c0 170 120 287 287 287c114 0 174 -46 244 -129c71 83 130 129 244 129c168 0 288 -117 288 -287z" />
    <glyph glyph-name="P" unicode="P" 
d="M680 100c0 -33 -27 -60 -60 -60c-16 0 -31 6 -42 18l-120 120c-17 17 -18 40 -18 62v320c0 33 27 60 60 60s60 -27 60 -60v-315l102 -103c12 -11 18 -26 18 -42zM883 300c0 211 -172 383 -383 383c-81 0 -161 -26 -226 -74l2 -2c-31 -23 -60 -52 -83 -83l-2 2
c-48 -65 -74 -145 -74 -226c0 -211 172 -383 383 -383c81 0 161 26 226 74l-2 2c31 23 60 52 83 83l2 -2c48 65 74 145 74 226zM1000 300c0 -276 -224 -500 -500 -500s-500 224 -500 500s224 500 500 500s500 -224 500 -500z" />
    <glyph glyph-name="Q" unicode="Q" 
d="M585 496c0 -47 -37 -88 -85 -88s-85 41 -85 88s37 88 85 88s85 -41 85 -88zM727 217c0 34 -26 63 -60 63c-10 0 -20 -3 -28 -8c-45 -23 -89 -36 -140 -36c-50 0 -94 13 -138 36c-9 4 -18 7 -28 7c-34 0 -60 -29 -60 -63c0 -62 97 -87 147 -97l-117 -121
c-12 -12 -18 -28 -18 -44c0 -34 26 -63 60 -63c17 0 32 7 43 18l112 116l112 -116c11 -11 26 -18 43 -18c34 0 60 29 60 63c0 16 -6 32 -18 44l-117 121c49 10 147 36 147 98zM705 496c0 114 -88 213 -205 213s-205 -99 -205 -213s88 -213 205 -213s205 99 205 213z
M1000 712v-824c0 -48 -40 -88 -88 -88h-824c-48 0 -88 40 -88 88v824c0 48 40 88 88 88h824c48 0 88 -40 88 -88z" />
    <glyph glyph-name="R" unicode="R" horiz-adv-x="1050" 
d="M1050 415c0 -15 -19 -30 -29 -38l-275 -200l105 -323c3 -10 5 -20 5 -30c0 -13 -4 -24 -18 -24c-13 0 -28 9 -38 17l-275 199l-275 -199c-11 -8 -25 -17 -39 -17c-13 0 -18 11 -18 23c0 11 3 21 6 31l105 323l-275 200c-11 8 -29 23 -29 37c0 21 35 23 49 23l340 -1
l104 324c4 13 15 40 32 40s27 -27 31 -40l106 -324l339 1c14 0 49 -2 49 -22z" />
    <glyph glyph-name="S" unicode="S" 
d="M652 300c0 80 -66 144 -146 144s-145 -63 -145 -144c0 -80 65 -144 145 -144s146 64 146 144zM1000 372v-142l-185 -26c-6 -17 -13 -34 -21 -50l120 -157l-102 -100l-159 118c-16 -8 -34 -15 -51 -21l-30 -194h-143l-27 197c-15 5 -29 11 -43 18l-161 -119l-101 100
l121 160c-8 15 -14 30 -19 46l-199 28v142l199 28c5 15 12 31 19 45l-120 159l101 100l160 -119c15 8 31 14 47 20l28 195h143l28 -195c16 -5 33 -12 48 -19l158 117l102 -100l-119 -156c8 -16 15 -32 20 -48z" />
    <glyph glyph-name="T" unicode="T" horiz-adv-x="925" 
d="M641 181v106c-128 -73 -374 -16 -374 -190c0 -87 63 -127 143 -127c132 0 231 72 231 211zM925 -173h-264c-12 32 -16 59 -18 92c-81 -80 -193 -119 -306 -119c-182 0 -337 87 -337 286c0 245 220 275 412 300c34 4 67 9 100 15c60 11 131 24 131 99
c0 103 -82 126 -170 126c-111 0 -169 -31 -187 -145h-244c17 248 219 319 438 319c211 0 412 -56 412 -308v-408c0 -86 -2 -176 33 -257z" />
    <glyph glyph-name="U" unicode="U" horiz-adv-x="1070" 
d="M1070 -137c0 -21 -1 -42 -2 -63h-1067c0 21 -1 42 -1 63c0 4 0 30 1 37c34 145 303 139 398 250c10 13 17 20 17 38c0 24 -6 50 -11 73c-9 47 -26 61 -42 101c-18 41 -25 88 -33 132c-4 25 -6 50 -6 75c0 135 68 231 211 231s211 -96 211 -231c0 -25 -3 -50 -7 -75
c-7 -44 -15 -91 -32 -132c-17 -40 -33 -54 -42 -101c-5 -23 -11 -49 -11 -73c0 -18 6 -25 17 -38c95 -111 363 -105 397 -250c2 -8 2 -33 2 -37z" />
    <glyph glyph-name="V" unicode="V" horiz-adv-x="857" 
d="M429 -9c148 0 272 115 284 262h143c-12 -227 -200 -404 -427 -404c-102 0 -201 36 -279 102l-150 -150v405h405l-153 -153c50 -40 113 -62 177 -62zM707 651l150 150v-405h-405l153 153c-50 40 -113 62 -176 62c-148 0 -273 -115 -285 -262h-143c12 227 200 404 428 404
c101 0 200 -36 278 -102z" />
    <glyph glyph-name="W" unicode="W" horiz-adv-x="1113" 
d="M626 5c0 38 -31 69 -70 69c-38 0 -69 -31 -69 -69s31 -70 69 -70c39 0 70 32 70 70zM626 392v146h-139v-146c0 -32 8 -50 13 -81l26 -162h59l27 162c6 31 14 49 14 81zM1113 -119c0 -55 -46 -80 -95 -80h-923c-50 0 -95 26 -95 80c0 21 7 42 18 61l461 804
c17 28 43 55 78 55c34 0 60 -27 76 -55l462 -805c10 -18 18 -39 18 -60z" />
    <glyph glyph-name="X" unicode="X" horiz-adv-x="1188" 
d="M746 53l106 -107c-94 -88 -207 -146 -338 -146c-287 0 -514 213 -514 502c0 276 228 498 502 498c134 0 251 -60 349 -148l-105 -106c-68 62 -150 104 -243 104c-200 0 -354 -159 -354 -358c0 -189 166 -342 353 -342c93 0 176 41 244 103zM912 565l276 -266l-276 -264
v177h-413v176h413v177z" />
    <glyph glyph-name="Z" unicode="Z" horiz-adv-x="1217" 
d="M870 300c0 36 -30 65 -66 65h-391c-36 0 -65 -29 -65 -65s29 -65 65 -65h391c36 0 66 29 66 65zM1174 452v-609c0 -23 -20 -43 -44 -43h-1043c-24 0 -44 20 -44 43v609c0 24 20 44 44 44h1043c24 0 44 -20 44 -44zM1217 757v-131c0 -24 -19 -43 -43 -43h-1131
c-23 0 -43 19 -43 43v131c0 23 20 43 43 43h1131c24 0 43 -20 43 -43z" />
    <glyph glyph-name="bracketleft" unicode="[" horiz-adv-x="529" 
d="M265 35l-265 530h529z" />
    <glyph glyph-name="backslash" unicode="\" 
d="M726 -9l-535 535c-48 -65 -74 -145 -74 -226c0 -211 172 -383 383 -383c81 0 161 26 226 74zM883 300c0 211 -172 383 -383 383c-81 0 -161 -26 -226 -74l535 -535c48 65 74 145 74 226zM1000 300c0 -276 -224 -500 -500 -500s-500 224 -500 500s224 500 500 500
s500 -224 500 -500z" />
    <glyph glyph-name="bracketright" unicode="]" horiz-adv-x="529" 
d="M529 300l-529 -265v530z" />
    <glyph glyph-name="underscore" unicode="_" horiz-adv-x="1360" 
d="M160 277l317 135v96l-317 134v-99l209 -84l-209 -83v-99zM522 200h318v77h-318v-77zM1360 800v-1000h-1360v1000h1360z" />
    <glyph glyph-name="a" unicode="a" horiz-adv-x="760" 
d="M160 -40h440v560h-120v120h-320v-680zM560 800l200 -200l-1 -800h-759v1000h560z" />
    <glyph glyph-name="b" unicode="b" horiz-adv-x="1316" 
d="M158 108h671v316h-118v118h-553v-434zM987 503v-553h-987v750h789z" />
    <glyph glyph-name="c" unicode="c" horiz-adv-x="1137" 
d="M1137 700v-532c0 -55 -45 -100 -100 -100h-168v-268l-267 268h-502c-55 0 -100 45 -100 100v532c0 55 45 100 100 100h937c55 0 100 -45 100 -100z" />
    <glyph glyph-name="d" unicode="d" horiz-adv-x="1179" 
d="M1179 336c0 -257 -264 -465 -590 -465c-83 0 -162 14 -234 39l2 -3l-357 -107c99 133 106 270 106 270c-66 75 -106 167 -106 266c0 256 264 464 589 464c326 0 590 -208 590 -464z" />
    <glyph glyph-name="e" unicode="e" horiz-adv-x="1179" 
d="M429 336c0 39 -32 71 -72 71c-39 0 -71 -32 -71 -71c0 -40 32 -72 71 -72c40 0 72 32 72 72zM679 336c0 39 -32 71 -72 71c-39 0 -71 -32 -71 -71c0 -40 32 -72 71 -72c40 0 72 32 72 72zM929 336c0 39 -32 71 -72 71c-39 0 -71 -32 -71 -71c0 -40 32 -72 71 -72
c40 0 72 32 72 72zM1179 336c0 -257 -264 -465 -590 -465c-83 0 -162 14 -234 39l2 -3l-357 -107c99 133 106 270 106 270c-66 75 -106 167 -106 266c0 256 264 464 589 464c326 0 590 -208 590 -464z" />
    <glyph glyph-name="f" unicode="f" 
d="M813 552l20 118c-43 15 -143 15 -143 15c-61 0 -97 -24 -123 -58c-25 -33 -26 -85 -26 -119v-6v-36v-36h-79v-115h79v-400h149v400h118l9 115h-127v36v42v12c0 31 28 42 59 42c0 0 31 0 64 -10zM1000 712v-824c0 -48 -40 -88 -88 -88h-824c-48 0 -88 40 -88 88v824
c0 48 40 88 88 88h824c48 0 88 -40 88 -88z" />
    <glyph glyph-name="g" unicode="g" 
d="M468 121c0 -64 -78 -98 -133 -98c-54 0 -124 28 -124 92c0 69 74 96 133 96c53 0 124 -27 124 -90zM413 466c0 -41 -16 -85 -64 -85c-63 0 -94 85 -94 137c0 41 17 85 64 85c63 0 94 -85 94 -137zM548 636c0 12 -12 11 -22 11c-62 0 -181 6 -244 -14
c-75 -25 -127 -83 -127 -164c0 -94 65 -156 158 -155h6c0 -69 11 -33 23 -66c-96 0 -226 -33 -226 -151c0 -112 111 -152 205 -152c110 0 227 53 227 179c0 113 -126 162 -126 195c0 37 97 51 97 175c0 39 -11 84 -44 107c22 3 73 3 73 35zM763 473h121v60h-121v122h-60
v-122h-122v-60h122v-121h60v121zM1000 712v-824c0 -48 -40 -88 -88 -88h-824c-48 0 -88 40 -88 88v824c0 48 40 88 88 88h824c48 0 88 -40 88 -88z" />
    <glyph glyph-name="h" unicode="h" horiz-adv-x="1185" 
d="M501 801v-319c684 -94 684 -593 684 -593s-148 274 -684 228v-316l-501 499z" />
    <glyph glyph-name="i" unicode="i" horiz-adv-x="1550" 
d="M866 801v-319c684 -94 684 -593 684 -593s-148 274 -684 228v-316l-501 499zM501 801v-182l-319 -319l319 -318v-181l-501 499z" />
    <glyph glyph-name="j" unicode="j" horiz-adv-x="1185" 
d="M0 482h684v319l501 -501l-501 -499v316h-684v365z" />
    <glyph glyph-name="k" unicode="k" 
d="M544 348h183l-1 119h-184l2 181h-112c-2 -45 -16 -87 -37 -118c-10 -15 -19 -37 -31 -47c-20 -16 -51 -15 -76 -15h-15v-120l91 -3v-303c0 -111 92 -121 161 -121h45c106 0 126 10 150 23v128v0v0c-31 -20 -68 -35 -105 -35c-38 0 -71 23 -71 38v273zM1000 712v-824
c0 -48 -40 -88 -88 -88h-824c-48 0 -88 40 -88 88v824c0 48 40 88 88 88h824c48 0 88 -40 88 -88z" />
    <glyph glyph-name="l" unicode="l" 
d="M200 0h128v419h-128v-419zM332 535c0 37 -26 65 -67 65s-68 -28 -68 -65c0 -36 26 -65 66 -65c43 0 70 29 69 65zM668 0h129v247c0 124 -64 181 -148 181c-69 0 -111 -40 -128 -68h-2l-6 59h-111c1 -38 3 -82 3 -134v-285h128v241c0 12 1 24 4 33c10 24 31 49 66 49
c47 0 65 -37 65 -91v-232zM1000 712v-824c0 -48 -40 -88 -88 -88h-824c-48 0 -88 40 -88 88v824c0 48 40 88 88 88h824c48 0 88 -40 88 -88z" />
    <glyph glyph-name="m" unicode="m" 
d="M880 547c0 69 -50 93 -112 93c-102 0 -197 -85 -228 -179c53 4 100 2 100 -64c0 -48 -59 -195 -113 -195c-15 0 -27 9 -36 19c-76 79 -26 398 -159 398c-82 0 -189 -116 -252 -165v-5c15 -15 14 -33 41 -33c23 0 44 14 67 14c24 0 35 -21 43 -40c9 -22 15 -47 23 -70
c15 -43 26 -87 37 -130c18 -70 49 -230 142 -230c191 0 415 404 444 553c2 12 3 23 3 34zM1000 712v-824c0 -48 -40 -88 -88 -88h-824c-48 0 -88 40 -88 88v824c0 48 40 88 88 88h824c48 0 88 -40 88 -88z" />
    <glyph glyph-name="n" unicode="n" 
d="M89 349l150 -107l-150 -106v213zM1000 14v-213h-669v213h669zM1000 349v-213h-669v213h669zM1000 683v-213h-669v213h669z" />
    <glyph glyph-name="o" unicode="o" 
d="M239 349v-213l-150 106zM1000 14v-213h-669v213h669zM1000 349v-213h-669v213h669zM1000 683v-213h-669v213h669z" />
    <glyph glyph-name="p" unicode="p" 
d="M239 -93c0 -41 -34 -76 -76 -76s-76 35 -76 76c0 42 34 77 76 77s76 -35 76 -77zM239 242c0 -42 -34 -76 -76 -76s-76 34 -76 76s34 76 76 76s76 -34 76 -76zM1000 14v-213h-669v213h669zM239 577c0 -42 -34 -76 -76 -76s-76 34 -76 76s34 76 76 76s76 -34 76 -76z
M1000 349v-213h-669v213h669zM1000 683v-213h-669v213h669z" />
    <glyph glyph-name="q" unicode="q" 
d="M233 -128c0 -40 -34 -62 -71 -62c-41 0 -71 24 -71 66v3h38c0 -21 10 -37 32 -37c18 0 32 11 32 30c0 20 -16 29 -35 28h-9v27c17 -1 40 2 40 24c0 15 -12 24 -27 24c-20 0 -29 -14 -29 -33h-37c1 40 26 64 66 64c32 0 64 -17 64 -52c0 -17 -10 -34 -27 -38
c22 -5 34 -22 34 -44zM232 175v-33h-141c2 83 101 83 101 132c0 16 -11 27 -28 27c-24 0 -30 -21 -31 -41h-37c0 44 23 75 70 75c35 0 65 -21 65 -59c0 -57 -64 -62 -90 -101h91zM1000 14v-213h-669v213h669zM196 662v-192h-42v125h-46v29c29 0 50 7 56 38h32zM1000 349
v-213h-669v213h669zM1000 683v-213h-669v213h669z" />
    <glyph glyph-name="r" unicode="r" 
d="M324 35c0 49 -40 89 -89 89c-48 0 -88 -40 -88 -89c0 -48 40 -88 88 -88c49 0 89 40 89 88zM477 -53h136c0 257 -209 466 -466 466v-135c88 0 171 -35 233 -97c63 -62 97 -145 97 -234zM717 -53h136c0 389 -317 706 -706 706v-135c314 0 570 -256 570 -571zM1000 712
v-824c0 -48 -40 -88 -88 -88h-824c-48 0 -88 40 -88 88v824c0 48 40 88 88 88h824c48 0 88 -40 88 -88z" />
    <glyph glyph-name="s" unicode="s" 
d="M783 175c0 245 -402 165 -402 282c0 51 73 65 112 65c146 0 101 -120 192 -120c36 0 69 28 69 65c0 19 -6 38 -15 54c-44 80 -153 105 -237 105c-113 0 -265 -41 -265 -181c0 -237 395 -147 395 -284c0 -63 -81 -83 -132 -83c-163 0 -109 145 -206 145
c-36 0 -70 -24 -70 -62c0 -31 13 -60 31 -85c57 -82 154 -104 249 -104c126 0 279 52 279 203zM1000 73c0 -152 -126 -273 -277 -273c-45 0 -90 11 -130 32c-29 -5 -58 -8 -88 -8c-260 0 -477 208 -477 471c0 32 4 63 10 94c-25 42 -38 90 -38 138c0 152 126 273 277 273
c51 0 103 -14 147 -42c27 5 54 7 81 7c261 0 477 -208 477 -470c0 -34 -3 -68 -11 -101c19 -38 29 -79 29 -121z" />
    <glyph glyph-name="t" unicode="t" horiz-adv-x="1003" 
d="M1003 240c-31 -34 -75 -47 -120 -46c-51 -212 -275 -336 -482 -336c-161 0 -306 72 -401 204c48 -46 114 -72 181 -72c73 0 141 30 191 83c-27 -4 -72 8 -72 42c0 22 23 37 41 45c-52 -6 -100 14 -124 62c19 21 42 26 69 28c-57 14 -101 42 -112 102c17 5 35 8 53 8h8
c-44 24 -88 67 -86 121l1 8c87 -33 175 -70 257 -116c28 -16 53 -40 76 -63c32 88 76 196 157 249c-1 -12 -7 -22 -15 -31c21 20 49 34 78 38c-3 -22 -34 -34 -53 -41c25 8 59 25 84 25c7 0 15 -2 15 -11c0 -18 -69 -33 -87 -40c114 12 198 -93 218 -194c12 -4 24 -6 36 -6
c23 0 62 7 83 19c-18 -43 -66 -63 -110 -66c25 -11 57 -15 83 -15c10 0 21 1 31 3z" />
    <glyph glyph-name="u" unicode="u" horiz-adv-x="963" 
d="M741 -199v1000h222v-1000h-222zM593 -199h-223v667h223v-667zM222 -199h-222v333h222v-333z" />
    <glyph glyph-name="v" unicode="v" 
d="M605 187c0 -85 -94 -77 -153 -77h-22v150h51c57 0 124 3 124 -73zM567 430c0 -68 -56 -67 -107 -67h-30v127h39c44 0 98 0 98 -60zM760 184c0 79 -46 129 -123 145v3c53 22 83 72 83 129c0 128 -122 139 -221 139h-219v-600h240c119 0 240 44 240 184zM1000 712v-824
c0 -48 -40 -88 -88 -88h-824c-48 0 -88 40 -88 88v824c0 48 40 88 88 88h824c48 0 88 -40 88 -88z" />
    <glyph glyph-name="w" unicode="w" horiz-adv-x="582" 
d="M582 388v-356c0 -22 -9 -32 -32 -32h-518c-22 0 -32 10 -32 32v356c0 23 10 33 32 33h389v194c0 73 -65 97 -128 97s-131 -29 -131 -102v-125h-97v128h1c12 118 112 194 227 194c120 0 211 -99 222 -214h1l2 -172c29 0 64 8 64 -33z" />
    <glyph glyph-name="x" unicode="x" horiz-adv-x="582" 
d="M421 550c0 73 -65 97 -128 97s-131 -29 -131 -102v-124h259v129zM582 388v-356c0 -22 -9 -32 -32 -32h-518c-22 0 -32 10 -32 32v356c0 41 36 33 65 33v127h1c12 118 112 194 227 194c120 0 211 -98 222 -214h1l2 -107c29 0 64 8 64 -33z" />
    <glyph glyph-name="y" unicode="y" 
d="M611 90v-133c0 -13 -4 -21 -18 -21c-12 0 -17 3 -25 11v158c6 6 13 10 22 10c16 0 21 -10 21 -25zM802 87v-28h-45v28c0 16 5 27 23 27c17 0 22 -12 22 -27zM258 192h61v50h-179v-50h60v-293h58v293zM414 -101h51v253h-51v-192c-7 -8 -19 -19 -31 -19c-11 0 -13 8 -13 17
v194h-52v-213c0 -23 10 -44 36 -44c21 0 46 17 60 32v-28zM664 -48v140c0 33 -12 63 -50 63c-18 0 -34 -10 -46 -23v110h-52v-343h52v20c15 -16 27 -23 49 -23c35 0 47 24 47 56zM855 -29v19h-53c0 -21 7 -53 -23 -53c-22 0 -22 18 -22 35v48h98v64c0 46 -26 75 -73 75
c-45 0 -79 -29 -79 -75v-113c0 -47 26 -79 75 -79c52 0 77 28 77 79zM926 62c0 -48 -3 -97 -6 -145c-5 -68 -58 -108 -123 -111c-99 -5 -198 -5 -297 -5s-199 0 -297 5c-65 3 -118 43 -123 111c-3 48 -6 97 -6 145s3 97 6 145c5 68 58 108 123 111c98 5 198 5 297 5
s199 0 297 -5c65 -3 118 -43 123 -111c3 -48 6 -97 6 -145zM315 801h73l-55 -165c-11 -33 -21 -50 -28 -83c-1 -8 0 -159 0 -176h-72c0 16 1 162 0 168c-7 34 -17 52 -29 85l-57 171h73l46 -169h5zM505 450v171c0 14 -15 23 -28 23s-26 -9 -26 -23v-171c0 -16 10 -26 26 -26
c17 0 28 8 28 26zM570 617v-162c0 -58 -38 -86 -93 -86c-53 0 -92 32 -92 87v162c0 55 45 80 95 80c48 0 90 -30 90 -81zM807 690v-313h-64v35c-19 -20 -45 -39 -74 -39c-34 0 -45 26 -45 56v261h64v-240c0 -12 3 -21 17 -21c12 0 30 15 38 24v237h64z" />
    <glyph glyph-name="z" unicode="z" 
d="M1000 235v-9l-426 -426h-565l-9 9v565l426 426h9l139 -139zM574 384v277h-277l-10 -9v-555l10 -10h555l9 10v268l-9 9h-268z" />
    <glyph glyph-name="braceleft" unicode="{" horiz-adv-x="471" 
d="M235 182l-235 236h471z" />
    <glyph glyph-name="braceright" unicode="}" horiz-adv-x="471" 
d="M471 182h-471l235 236z" />
    <glyph glyph-name="asciitilde" unicode="~" 
d="M412 360h103l-162 265l-162 -265h103v-294h118v294zM647 7l162 236h-103v293h-118v-293h-103zM1000 301c0 -276 -224 -500 -500 -500s-500 224 -500 500s224 500 500 500s500 -224 500 -500z" />
    <glyph glyph-name="quotesingle" unicode="'" 
d="M654 300l346 -346l-154 -154l-346 346l-346 -346l-154 154l346 346l-346 346l154 154l346 -346l346 346l154 -154z" />
    <glyph glyph-name="grave" unicode="`" 
d="M848 241h-142v118h142c-25 147 -142 264 -289 289v-142h-118v142c-147 -25 -264 -142 -289 -289h142v-118h-142c25 -147 142 -264 289 -289v142h118v-142c147 25 264 142 289 289zM1000 300c0 -276 -224 -500 -500 -500s-500 224 -500 500s224 500 500 500
s500 -224 500 -500z" />
    <glyph glyph-name="onesuperior" unicode="&#xb9;" 
d="M120 -79h200v200h-200v-200zM440 241v-440h-440v440h440zM680 -79h200v200h-200v-200zM1000 241v-440h-440v440h440zM120 481h200v200h-200v-200zM440 801v-440h-440v440h440zM680 481h200v200h-200v-200zM1000 801v-440h-440v440h440z" />
    <glyph glyph-name="twosuperior" unicode="&#xb2;" 
d="M1000 -39v-160h-1000v160h1000zM1000 241v-160h-1000v160h1000zM1000 521v-160h-1000v160h1000zM1000 801v-160h-1000v160h1000z" />
    <glyph glyph-name="multiply" unicode="&#xd7;" 
d="M661 68l71 71l-161 161l161 161l-71 71l-161 -161l-161 161l-71 -71l161 -161l-161 -161l71 -71l161 161zM1000 300c0 -276 -224 -500 -500 -500s-500 224 -500 500s224 500 500 500s500 -224 500 -500z" />
    <glyph glyph-name="threesuperior" unicode="&#xb3;" 
d="M120 -79h200v200h-200v-200zM440 241v-440h-440v440h440zM1000 -39v-160h-440v160h440zM120 481h200v200h-200v-200zM440 801v-440h-440v440h440zM1000 241v-160h-440v160h440zM1000 521v-160h-440v160h440zM1000 801v-160h-440v160h440z" />
    <glyph glyph-name="uni007F" 
 />
  </font>
</defs>
</svg>
